Prezone.pl - Forum wielotematyczne, forum download, forum warez, darmowe filmy, pobierz, ściągnij, bez limitów  
Witamy na Prezone.pl - Forum internetowym dla Wszystkich!
Zapraszamy do rejestracji, która umożliwi korzystanie z wszystkich funkcji naszego forum.

Stare 06-10-2022, 21:51  
*Motylek*
 
Awatar *Motylek*
 
Dołączył: Jan 2012
Posty: 20,291


Piwka Panel Piwny:

Jeepers Creepers Reborn (2022) 1080p.AMZN.WEB-DL.DDP5.1.H.264-CM

5.70 gb



gatunek Horror
produkcja USA / Wielka Brytania / Finlandia

Zmuszona do podróży ze swoim chłopakiem Laine zaczyna doświadczać przeczuć związanych z miejską legendą o Smakoszu. Dziewczyna wierzy, że zostało wezwane coś nadprzyrodzonego - i że jest w centrum tego wszystkiego.

screen

info
Spoiler:
Video
ID : 1
Format : AVC
Format/Info : Advanced Video Codec
Format profile : [email protected]
Format settings : CABAC / 4 Ref Frames
Format settings, CABAC : Yes
Format settings, Reference frames : 4 frames
Codec ID : V_MPEG4/ISO/AVC
Duration : 1 h 27 min
Bit rate mode : Constant
Bit rate : 8 657 kb/s
Nominal bit rate : 10 000 kb/s
Width : 1 920 pixels
Height : 800 pixels
Display aspect ratio : 2.40:1
Frame rate mode : Constant
Frame rate : 23.976 (24000/1001) FPS
Color space : YUV
Chroma subsampling : 4:2:0
Bit depth : 8 bits
Scan type : Progressive
Bits/(Pixel*Frame) : 0.235
Stream size : 5.31 GiB (93%)
Language : English
Default : Yes
Forced : No
Color range : Limited
Color primaries : BT.709
Transfer characteristics : BT.709
Matrix coefficients : BT.709

Audio
ID : 2
Format : E-AC-3
Format/Info : Enhanced AC-3
Commercial name : Dolby Digital Plus
Codec ID : A_EAC3
Duration : 1 h 27 min
Bit rate mode : Constant
Bit rate : 640 kb/s
Channel(s) : 6 channels
Channel layout : L R C LFE Ls Rs
Sampling rate : 48.0 kHz
Frame rate : 31.250 FPS (1536 SPF)
Compression mode : Lossy
Stream size : 402 MiB (7%)
Language : English
Service kind : Complete Main
Default : Yes
Forced : No

Text #1
ID : 3
Format : UTF-8
Codec ID : S_TEXT/UTF8
Codec ID/Info : UTF-8 Plain Text
Duration : 1 h 27 min
Bit rate : 53 b/s
Frame rate : 0.281 FPS
Count of elements : 1478
Stream size : 34.4 KiB (0%)
Title : SDH
Language : English
Default : No
Forced : No

Text #2
ID : 4
Format : UTF-8
Codec ID : S_TEXT/UTF8
Codec ID/Info : UTF-8 Plain Text
Duration : 1 h 27 min
Bit rate : 43 b/s
Frame rate : 0.220 FPS
Count of elements : 1157
Stream size : 28.2 KiB (0%)
Language : English
Default : No
Forced : No



download
Treść widoczna tylko dla użytkowników forum Prezone.pl. Zaloguj się lub załóż darmowe konto aby otrzymać dostęp do niewidocznej treści.


*Motylek* jest nieaktywny  
Stare 24-11-2022, 13:15  
*Motylek*
 
Awatar *Motylek*
 
Dołączył: Jan 2012
Posty: 20,291


Piwka Panel Piwny:

Smakosz: Odrodzenie / Jeepers Creepers: Reborn (2022) MULTi.1080p.BluRay.x264.DD5.1-K83 / Lektor i Napisy PL

7.79 GiB


info
Spoiler:
Format : Matroska at 12.7 Mb/s
Length : 7.79 GiB for 1 h 27 min 54 s 528 ms

Video #0 : AVC at 11.7 Mb/s
Aspect : 1920 x 804 (2.388) at 23.976 fps

Audio #0 : AC-3 at 384 kb/s
Infos : 6 channels, 48.0 kHz
Language : pl

Audio #1 : AC-3 at 640 kb/s
Infos : 6 channels, 48.0 kHz
Language : en

Text #0 : UTF-8
Language : pl



download
Treść widoczna tylko dla użytkowników forum Prezone.pl. Zaloguj się lub załóż darmowe konto aby otrzymać dostęp do niewidocznej treści.


*Motylek* jest nieaktywny  
Stare 24-11-2022, 14:20  
morrtimer
 
Awatar morrtimer
 
Dołączył: Aug 2022
Skąd: Wszędzie
Wiek: 33
Posty: 1,647


Piwka Panel Piwny:


Smakosz: Odrodzenie / Jeepers Creepers: Reborn (2022)
MULTi.1080p.BluRay.x264.DD5.1-K83 / Polski Lektor i Napisy PL




gatunek: Horror
produkcja: USA, Wielka Brytania, Finlandia

Zmuszona do podróży ze swoim chłopakiem Laine zaczyna doświadczać przeczuć związanych z miejską legendą o Smakoszu. Dziewczyna wierzy, że zostało wezwane coś nadprzyrodzonego - i że jest w centrum tego wszystkiego.

iNFO:
Format : Matroska at 12.7 Mb/s
Length : 7.79 GiB for 1 h 27 min 54 s 528 ms

Video #0 : AVC at 11.7 Mb/s
Aspect : 1920 x 804 (2.388) at 23.976 fps

Audio #0 : AC-3 at 384 kb/s
Infos : 6 channels, 48.0 kHz
Language : pl

Audio #1 : AC-3 at 640 kb/s
Infos : 6 channels, 48.0 kHz
Language : en

Text #0 : UTF-8
Language : pl

INSIDE:
Rozmiar uploadu...: 7.79 GiB
Zawartość uploadu.: Plik .mkv
Dane naprawcze....: brak danych naprawczych
Hasło.............: brak hasła
Treść widoczna tylko dla użytkowników forum Prezone.pl. Zaloguj się lub załóż darmowe konto aby otrzymać dostęp do niewidocznej treści.



ŹRÓDEŁKA (W PARTACH):
Treść widoczna tylko dla użytkowników forum Prezone.pl. Zaloguj się lub załóż darmowe konto aby otrzymać dostęp do niewidocznej treści.


Treść widoczna tylko dla użytkowników forum Prezone.pl. Zaloguj się lub załóż darmowe konto aby otrzymać dostęp do niewidocznej treści.


Treść widoczna tylko dla użytkowników forum Prezone.pl. Zaloguj się lub załóż darmowe konto aby otrzymać dostęp do niewidocznej treści.


Treść widoczna tylko dla użytkowników forum Prezone.pl. Zaloguj się lub załóż darmowe konto aby otrzymać dostęp do niewidocznej treści.


Treść widoczna tylko dla użytkowników forum Prezone.pl. Zaloguj się lub załóż darmowe konto aby otrzymać dostęp do niewidocznej treści.


morrtimer jest teraz aktywny  

Sprawdź także:



Podobne wątki do: Jeepers Creepers Reborn (2022)
Wątek Autor wątku Forum Odpowiedzi Ostatni post / autor
Jeepers Creepers Reborn (2022) 4k *Motylek* Filmy HD DVD & BluRay 0 05-10-2022 12:17
Smakosz 3 / Jeepers Creepers 3 (2017) uploader1981 Filmy 6 09-11-2018 13:27
Smakosz 3 / Jeepers Creepers 3 (2017) rafi11a Filmy HD DVD & BluRay 3 12-12-2017 21:49

Narzędzia wątku



Powered by vBulletin
Copyright ® 2011 vBulletin Solutions, Inc.
Copyright © PreZone.pl 2008 - 2020
Czasy w strefie GMT +1. Teraz jest 18:09.