Prezone.pl - Forum wielotematyczne, forum download, forum warez, darmowe filmy, pobierz, ściągnij, bez limitów  
Witamy na Prezone.pl - Forum internetowym dla Wszystkich!
Zapraszamy do rejestracji, która umożliwi korzystanie z wszystkich funkcji naszego forum.

Stare 29-10-2017, 02:51  
campitos
 
Awatar campitos
 
Dołączył: Apr 2017
Skąd: argentina
Posty: 2,878


Piwka Panel Piwny:



ORYGINALNY TYTUŁ: 47 Ronin
ROK 2013
DURATION: 119 min.
KRAJ: USA
DYREKTOR: Carl Erik Rinsch
GUY: Hossein Amini, Chris Morgan
RAPORT: Keanu Reeves, Hiroyuki Sanada, Kou Shibasaki, Cary-Hiroyuki Tagawa, Rinko Kikuchi, Tadanobu Asano, Togo Igawa
STUDIO / PRODUCENT: Zdjęcia uniwersalne / H2F Entertainment / Producenci stubera
GENDER: Akcja. Dramat. Fantastico | Feudalny japoński samuraj. XVIII wiek. Zemsta. 3-D
Treść widoczna tylko dla użytkowników forum Prezone.pl. Zaloguj się lub załóż darmowe konto aby otrzymać dostęp do niewidocznej treści.
Synopsis: Na podstawie japońskiej legendy. XVIII wiek. Kai (Keanu Reeves) jest pariah, który dołącza do Oishi (Hiroyuki Sanada), szefa 47 Ronina. Jego celem jest zemsta na zdrajcę, który zabił swego pana i potępił ich wygnanie. Aby odzyskać utracony zaszczyt, wojownicy angażują się w przygodę, która zmuszała ich do pokonania surowych prób.
Zwiastun filmu


General
Format Matroska
Format version Version 2
File size 13.9 GiB
Duration 1h 58mn
Overall bit rate 16.7 Mbps
Encoded date UTC 2014-03-23 13:46:51
Writing application mkvmerge v5.7.0 (The Whirlwind) built on Jul 8 2012 20:08:51
Writing library libebml v1.2.3 + libmatroska v1.3.0
Video
ID 1
Format AVC
Format/Info Advanced Video Codec
Format profile [email protected]
Format settings, CABAC Yes
Format settings, ReFrames 4 frames
Muxing mode Header stripping
Codec ID V_MPEG4/ISO/AVC
Duration 1h 58mn
Bit rate 13.2 Mbps
Width 1 920 pixels
Height 1 080 pixels
Display aspect ratio 16:9
Frame rate mode Constant
Frame rate 23.976 fps
Color space YUV
Chroma subsampling 4:2:0
Bit depth 8 bits
Scan type Progressive
Bits/(Pixel*Frame) 0.266
Stream size 10.7 GiB (77%)
Writing library x264 core 140 r2377 1ca7bb9
Language English
Default Yes
Forced No
Audio #1
ID 2
Format DTS
Format/Info Digital Theater Systems
Mode 16
Format settings, Endianness : Big
Muxing mode : Header stripping
Codec ID : A_DTS
Duration : 1h 58mn
Bit rate mode : Constant
Bit rate : 768 Kbps
Channel(s) : 6 channels
Channel positions : Front: L C R, Side: L R, LFE
Sampling rate : 48.0 KHz
Bit depth : 24 bits
Compression mode : Lossy
Stream size : 652 MiB (5%)
Title : DTS 5.1
Language : Spanish
Default : Yes
Forced : No
Audio #2
ID : 3
Format : AC-3
Format/Info : Audio Coding 3
Mode extension : CM (complete main)
Format settings, Endianness : Big
Muxing mode : Header stripping
Codec ID : A_AC3
Duration : 1h 58mn
Bit rate mode : Constant
Bit rate : 640 Kbps
Channel(s) : 6 channels
Channel positions : Front: L C R, Side: L R, LFE
Sampling rate : 48.0 KHz
Bit depth : 16 bits
Compression mode : Lossy
Stream size : 544 MiB (4%)
Title : AC3 5.1
Language : Spanish
Default : No
Forced : No
Audio #3
ID : 4
Format : AC-3
Format/Info : Audio Coding 3
Mode extension : CM (complete main)
Format settings, Endianness : Big
Muxing mode : Header stripping
Codec ID : A_AC3
Duration : 1h 58mn
Bit rate mode : Constant
Bit rate : 640 Kbps
Channel(s) : 6 channels
Channel positions : Front: L C R, Side: L R, LFE
Sampling rate : 48.0 KHz
Bit depth : 16 bits
Compression mode : Lossy
Stream size : 544 MiB (4%)
Title : AC3 5.1
Language : English
Default : No
Forced : No
Audio #4
ID : 5
Format : DTS
Format/Info : Digital Theater Systems
Mode : 16
Format settings, Endianness : Big
Muxing mode : Header stripping
Codec ID : A_DTS
Duration : 1h 58mn
Bit rate mode : Constant
Bit rate : 1 509 Kbps
Channel(s) : 6 channels
Channel positions : Front: L C R, Side: L R, LFE
Sampling rate : 48.0 KHz
Bit depth : 24 bits
Compression mode : Lossy
Stream size : 1.25 GiB (9%)
Title : DTS 5.1
Language : English
Default : No
Forced : No
Text #1
ID : 6
Format : VobSub
Muxing mode : zlib
Codec ID : S_VOBSUB
Codec ID/Info : The same subtitle format used on DVDs
Title : Forzados
Language : Spanish
Default : Yes
Forced : No
Text #2
ID : 7
Format : VobSub
Muxing mode : zlib
Codec ID : S_VOBSUB
Codec ID/Info The same subtitle format used on DVDs
Title Completos
Language Spanish
Default No
Forced No




Buy Account To Get High Speed Download
Treść widoczna tylko dla użytkowników forum Prezone.pl. Zaloguj się lub załóż darmowe konto aby otrzymać dostęp do niewidocznej treści.
Treść widoczna tylko dla użytkowników forum Prezone.pl. Zaloguj się lub załóż darmowe konto aby otrzymać dostęp do niewidocznej treści.
Treść widoczna tylko dla użytkowników forum Prezone.pl. Zaloguj się lub załóż darmowe konto aby otrzymać dostęp do niewidocznej treści.
campitos jest nieaktywny  

Sprawdź także:



Podobne wątki do: 47 Ronin (2013) 3D H-SBS 1080p
Wątek Autor wątku Forum Odpowiedzi Ostatni post / autor
R.I.P.D. (2013) 3D H-SBS 1080p campitos Filmy 3D 0 11-10-2017 20:42
47 Ronin (2013) 3D H-SBS 1080p campitos Filmy 3D 0 10-10-2017 18:27
R.I.P.D. (2013) 3D H-SBS 1080p campitos Filmy 3D 0 28-08-2017 18:46
47 Ronin (2013) 3D H-SBS 1080p campitos Filmy 3D 0 24-05-2017 13:09

Narzędzia wątku



Powered by vBulletin
Copyright ® 2011 vBulletin Solutions, Inc.
Copyright © PreZone.pl 2008 - 2020
Czasy w strefie GMT +1. Teraz jest 18:49.