Prezone.pl - Forum wielotematyczne, forum download, forum warez, darmowe filmy, pobierz, ściągnij, bez limitów  
Witamy na Prezone.pl - Forum internetowym dla Wszystkich!
Zapraszamy do rejestracji, która umożliwi korzystanie z wszystkich funkcji naszego forum.


408
405
402
403
407
406



Wróć   Prezone.pl - Forum wielotematyczne, forum download, forum warez, darmowe filmy, pobierz, ściągnij, bez limitów > Download na Rapidshare, Hotfile, Rapidgator, Uploaded... > Filmy > Filmy HD DVD & BluRay



 
 
        
  
 
Narzędzia wątku
Stare 14-02-2018, 22:08  
*Motylek*
 
Awatar *Motylek*
 
Dołączył: Jan 2012
Posty: 9,697


Piwka Panel Piwny:

The Gateway (2018) 1080p.WEB-DL.DD5.1.H264-FGT

The Gateway (2018)

Ocena.: IMDB - 7.9/10 (103)
Produkcja..: Australia
Gatunek..: Sci-Fi
Czas trwania...: 90 min.
Premiera....: 10.02.2018 - Świat
Reżyseria..: John V. Soto
Scenariusz......: John V. Soto, Michael White
Aktorzy...: Jacqueline McKenzie, Myles Pollard, Hayley McElhinney, Shannon Berry

Opłakująca utratę męża w wypadku samochodowym fizyk udaje się w podróż do równoległego świata, aby go odnaleźć. Wyprawa ta będzie miała okropne konsekwencje dla jej rodziny.


Spoiler:
Video
ID : 1
Format : AVC
Format/Info : Advanced Video Codec
Format profile : [email protected]
Format settings : CABAC / 5 Ref Frames
Format settings, CABAC : Yes
Format settings, ReFrames : 5 frames
Codec ID : V_MPEG4/ISO/AVC
Duration : 1 h 30 min
Bit rate : 4 568 kb/s
Width : 1 916 pixels
Height : 796 pixels
Display aspect ratio : 2.40:1
Frame rate mode : Constant
Frame rate : 24.000 FPS
Color space : YUV
Chroma subsampling : 4:2:0
Bit depth : 8 bits
Scan type : Progressive
Bits/(Pixel*Frame) : 0.125
Stream size : 2.88 GiB (92%)
Title : The.Gateway.2018.1080p.WEB-DL.DD5.1.H264-FGT
Language : English
Default : Yes
Forced : No
Color range : Limited
Color primaries : BT.709
Transfer characteristics : BT.709
Matrix coefficients : BT.709

Audio
ID : 2
Format : AC-3
Format/Info : Audio Coding 3
Codec ID : A_AC3
Duration : 1 h 30 min
Bit rate mode : Constant
Bit rate : 384 kb/s
Channel(s) : 6 channels
Channel positions : Front: L C R, Side: L R, LFE
Sampling rate : 48.0 kHz
Frame rate : 31.250 FPS (1536 SPF)
Bit depth : 16 bits
Compression mode : Lossy
Delay relative to video : -42 ms
Stream size : 248 MiB (8%)
Title : The.Gateway.2018.1080p.WEB-DL.DD5.1.H264-FGT
Language : English
Service kind : Complete Main
Default : Yes
Forced : No

Text
ID : 3
Format : UTF-8
Codec ID : S_TEXT/UTF8
Codec ID/Info : UTF-8 Plain Text
Duration : 1 h 22 min
Bit rate : 37 b/s
Count of elements : 852
Stream size : 22.9 KiB (0%)
Language : English
Default : Yes
Forced : No




Treść widoczna tylko dla użytkowników forum Prezone.pl. Zaloguj się lub załóż darmowe konto aby otrzymać dostęp do niewidocznej treści.


*Motylek* jest nieaktywny  

Tagi do tematu: The Gateway (2018)
2018, gateway

Sprawdź także:



Podobne wątki do: The Gateway (2018)
Wątek Autor wątku Forum Odpowiedzi Ostatni post / autor
VA Dimenisonal Gateway 4 (2017) campitos Muzyka 0 21-08-2017 21:04
VA Dimenisonal Gateway 4 (2017) campitos Muzyka 0 27-04-2017 18:07
Vortex: The Gateway (2016) YaGo Gry 1 24-03-2016 15:34

Narzędzia wątku



Powered by vBulletin
Copyright ® 2011 vBulletin Solutions, Inc.
Copyright © PreZone.pl 2008 - 2015
Czasy w strefie GMT +1. Teraz jest 21:25.