Prezone.pl - Forum wielotematyczne, forum download, forum warez, darmowe filmy, pobierz, ściągnij, bez limitów  
Witamy na Prezone.pl - Forum internetowym dla Wszystkich!
Zapraszamy do rejestracji, która umożliwi korzystanie z wszystkich funkcji naszego forum.


403
405
408
407
406
402



Wróć   Prezone.pl - Forum wielotematyczne, forum download, forum warez, darmowe filmy, pobierz, ściągnij, bez limitów > Download na Rapidshare, Hotfile, Rapidgator, Uploaded... > Filmy > Filmy 3D


Filmy 3D Dział w którym znajdziesz oferty filmów w technologii 3D.


 
 
        
  
 
Narzędzia wątku
Stare 14-06-2018, 20:37  
*Motylek*
 
Awatar *Motylek*
 
Dołączył: Jan 2012
Posty: 9,469


Piwka Panel Piwny:

Pacific Rim: Rebelia / Pacific Rim 2 Uprising (2018) 1080p.3D.BluRay.Half-OU.x264.TrueHD.7.1.Atmos-FGT

Pacific Rim: Rebelia / Pacific Rim 2 Uprising (2018)

Reżyseria: Steven S. DeKnight
Scenariusz: Emily Carmichael, T.S. Nowlin
Gatunek: Akcja, Sci-Fi
Produkcja: Chiny, USA
Premiera: 23 marca 2018 (Polska) 22 lutego 2018 (świat)


Jake musi powrócić z kryminalnego podziemia i pojednać się z siostrą, aby uratować Ziemię przed kolejną inwazją "Kaiju".




Informacje o pliku video:

Spoiler:

Video
ID : 1
Format : AVC
Format/Info : Advanced Video Codec
Format profile : [email protected]
Format settings : CABAC / 3 Ref Frames
Format settings, CABAC : Yes
Format settings, ReFrames : 3 frames
Codec ID : V_MPEG4/ISO/AVC
Duration : 1 h 50 min
Bit rate : 16.0 Mb/s
Width : 1 920 pixels
Height : 1 080 pixels
Display aspect ratio : 16:9
Frame rate mode : Constant
Frame rate : 23.976 (24000/1001) FPS
Color space : YUV
Chroma subsampling : 4:2:0
Bit depth : 8 bits
Scan type : Progressive
Bits/(Pixel*Frame) : 0.322
Stream size : 12.2 GiB (71%)
Title : Pacific.Rim.Uprising.2018.1080p.3D.BluRay.Half-OU.x264.TrueHD.7.1.Atmos-FGT
Writing library : x264 core 148
Encoding settings : cabac=1 / ref=3 / deblock=1:-1:-1 / analyse=0x3:0 / me=hex / subme=5 / psy=1 / psy_rd=1.00:0.00 / mixed_ref=0 / me_range=16 / chroma_me=1 / trellis=1 / 8x8dct=1 / cqm=0 / deadzone=21,11 / fast_pskip=0 / chroma_qp_offset=0 / threads=24 / lookahead_threads=6 / sliced_threads=0 / nr=0 / decimate=1 / interlaced=0 / bluray_compat=0 / constrained_intra=0 / bframes=2 / b_pyramid=0 / b_adapt=1 / b_bias=0 / direct=1 / weightb=0 / open_gop=0 / weightp=0 / keyint=24 / keyint_min=2 / scenecut=40 / intra_refresh=0 / rc=abr / mbtree=0 / bitrate=16000 / ratetol=1.0 / qcomp=0.60 / qpmin=0 / qpmax=69 / qpstep=4 / ip_ratio=1.40 / pb_ratio=1.30 / aq=1:1.00
Default : Yes
Forced : No
Color range : Limited
Color primaries : BT.709
Transfer characteristics : BT.709
Matrix coefficients : BT.709

Audio #1
ID : 2
Format : TrueHD
Format profile : TrueHD+Atmos / TrueHD
Codec ID : A_TRUEHD
Duration : 1 h 50 min
Bit rate mode : Variable
Bit rate : 4 001 kb/s
Maximum bit rate : 7 437 kb/s
Channel(s) : Object Based / 8 channels
Channel positions : Object Based / Front: L C R, Side: L R, Back: L R, LFE
Sampling rate : / 48.0 kHz
Frame rate : 1 200.000 FPS (40 SPF)
Compression mode : Lossless
Stream size : 3.09 GiB (18%)
Title : Pacific.Rim.Uprising.2018.1080p.3D.BluRay.Half-OU.x264.TrueHD.7.1.Atmos-FGT
Language : English
Default : Yes
Forced : No

Audio #2
ID : 3
Format : AC-3
Format/Info : Audio Coding 3
Codec ID : A_AC3
Duration : 1 h 50 min
Bit rate mode : Constant
Bit rate : 448 kb/s
Channel(s) : 6 channels
Channel positions : Front: L C R, Side: L R, LFE
Sampling rate : 48.0 kHz
Frame rate : 31.250 FPS (1536 SPF)
Bit depth : 16 bits
Compression mode : Lossy
Stream size : 355 MiB (2%)
Title : Pacific.Rim.Uprising.2018.1080p.3D.BluRay.Half-OU.x264.TrueHD.7.1.Atmos-FGT
Language : English
Service kind : Complete Main
Default : No
Forced : No

Audio #3
ID : 4
Format : E-AC-3
Format/Info : Enhanced Audio Coding 3
Codec ID : A_EAC3
Duration : 1 h 50 min
Bit rate mode : Constant
Bit rate : 500 b/s
Channel(s) : 8 channels
Channel(s)_Original : 6 channels
Channel positions : Front: L C R, Side: L R, LFE
Sampling rate : 48.0 kHz
Frame rate : 187.500 FPS (256 SPF)
Compression mode : Lossy
Stream size : 608 MiB (3%)
Title : Pacific.Rim.Uprising.2018.1080p.3D.BluRay.Half-OU.x264.TrueHD.7.1.Atmos-FGT
Language : Spanish
Service kind : Complete Main
Default : No
Forced : No

Audio #4
ID : 5
Format : AC-3
Format/Info : Audio Coding 3
Codec ID : A_AC3
Duration : 1 h 50 min
Bit rate mode : Constant
Bit rate : 640 kb/s
Channel(s) : 6 channels
Channel positions : Front: L C R, Side: L R, LFE
Sampling rate : 48.0 kHz
Frame rate : 31.250 FPS (1536 SPF)
Bit depth : 16 bits
Compression mode : Lossy
Stream size : 507 MiB (3%)
Title : Pacific.Rim.Uprising.2018.1080p.3D.BluRay.Half-OU.x264.TrueHD.7.1.Atmos-FGT
Language : French
Service kind : Complete Main
Default : No
Forced : No

Audio #5
ID : 6
Format : AC-3
Format/Info : Audio Coding 3
Codec ID : A_AC3
Duration : 1 h 50 min
Bit rate mode : Constant
Bit rate : 192 kb/s
Channel(s) : 2 channels
Channel positions : Front: L R
Sampling rate : 48.0 kHz
Frame rate : 31.250 FPS (1536 SPF)
Bit depth : 16 bits
Compression mode : Lossy
Stream size : 152 MiB (1%)
Title : Pacific.Rim.Uprising.2018.1080p.3D.BluRay.Half-OU.x264.TrueHD.7.1.Atmos-FGT
Language : English
Service kind : Complete Main
Default : No
Forced : No

Audio #6
ID : 7
Format : AC-3
Format/Info : Audio Coding 3
Codec ID : A_AC3
Duration : 1 h 50 min
Bit rate mode : Constant
Bit rate : 192 kb/s
Channel(s) : 2 channels
Channel positions : Front: L R
Sampling rate : 48.0 kHz
Frame rate : 31.250 FPS (1536 SPF)
Bit depth : 16 bits
Compression mode : Lossy
Stream size : 152 MiB (1%)
Title : Pacific.Rim.Uprising.2018.1080p.3D.BluRay.Half-OU.x264.TrueHD.7.1.Atmos-FGT
Language : English
Service kind : Complete Main
Default : No
Forced : No

Text #1
ID : 8
Format : PGS
Muxing mode : zlib
Codec ID : S_HDMV/PGS
Codec ID/Info : Picture based subtitle format used on BDs/HD-DVDs
Duration : 1 h 40 min
Bit rate : 81.7 kb/s
Count of elements : 3200
Stream size : 58.5 MiB (0%)
Title : English-PGS
Language : English
Default : Yes
Forced : No

Text #2
ID : 9
Format : PGS
Muxing mode : zlib
Codec ID : S_HDMV/PGS
Codec ID/Info : Picture based subtitle format used on BDs/HD-DVDs
Duration : 1 h 49 min
Bit rate : 57.3 kb/s
Count of elements : 2892
Stream size : 45.1 MiB (0%)
Title : Spanish-PGS
Language : Spanish
Default : No
Forced : No

Text #3
ID : 10
Format : PGS
Muxing mode : zlib
Codec ID : S_HDMV/PGS
Codec ID/Info : Picture based subtitle format used on BDs/HD-DVDs
Duration : 1 h 49 min
Bit rate : 59.7 kb/s
Count of elements : 2938
Stream size : 47.0 MiB (0%)
Title : French-PGS
Language : French
Default : No
Forced : No

Text #4
ID : 11
Format : PGS
Muxing mode : zlib
Codec ID : S_HDMV/PGS
Codec ID/Info : Picture based subtitle format used on BDs/HD-DVDs
Duration : 1 h 48 min
Bit rate : 3 171 b/s
Count of elements : 162
Stream size : 2.47 MiB (0%)
Title : Spanish-FORCED-PGS
Language : Spanish
Default : No
Forced : No

Text #5
ID : 12
Format : PGS
Muxing mode : zlib
Codec ID : S_HDMV/PGS
Codec ID/Info : Picture based subtitle format used on BDs/HD-DVDs
Duration : 1 h 48 min
Bit rate : 4 226 b/s
Count of elements : 196
Stream size : 3.29 MiB (0%)
Title : French-FORCED-PGS
Language : French
Default : No
Forced : No



Pacific Rim: Rebelia / Pacific Rim 2 Uprising (2018)


Treść widoczna tylko dla użytkowników forum Prezone.pl. Zaloguj się lub załóż darmowe konto aby otrzymać dostęp do niewidocznej treści.
*Motylek* jest teraz aktywny  

Tagi do tematu: Pacific Rim: Rebelia / Pacific Rim 2 Uprising (2018)
2018, pacific, rebelia, rim, uprising

Sprawdź także:



Podobne wątki do: Pacific Rim: Rebelia / Pacific Rim 2 Uprising (2018)
Wątek Autor wątku Forum Odpowiedzi Ostatni post / autor
Pacific Rim: Rebelia / Pacific Rim: Uprising (2018) rafi11a Filmy HD DVD & BluRay 5 10-06-2018 16:45
Pacific Rim: Rebelia / Pacific Rim: Uprising (2018) rafi11a Filmy 2 07-06-2018 21:23
Pacific Rim: Rebelia / Pacific Rim: Uprising (2018) uploader1981 Filmy 0 02-04-2018 21:14
Pacific Rim (2013) avista Filmy | Bez Limitów 1 10-11-2013 18:38

Narzędzia wątku



Powered by vBulletin
Copyright ® 2011 vBulletin Solutions, Inc.
Copyright © PreZone.pl 2008 - 2015
Czasy w strefie GMT +1. Teraz jest 16:50.